Pirated compact discs damage your … The Traveling Wilburys, Vol. Si è verificato un problema durante il salvataggio delle preferenze relative ai cookie. These images provided by the Cover Art Archive. 3, in 1990. 3 is the second and final studio album by the Traveling Wilburys, a group consisting of George Harrison, Jeff Lynne, Bob Dylan and Tom Petty.It was released on October 29, 1990 as the follow-up to their 1988 debut, Traveling Wilburys Vol. 2 is Tom Petty's album Fool Moon Fever … It would be quite appropriate to inquire about vol. AccurateRip summary. $13.49. 1 (1988) Retail CD Covers and Album Art available on AllCDCovers Completa la tua Collezione su Traveling Wilburys. Traveling Wilburys, Vol. 1: Rhino 1990 : The Traveling Wilburys, Vol. Year Album Label 3 (both Mystery Girl and Petty's 1989 solo debut Full … Craft Recordings have announced that a limited edition 12” picture disc of the unforgettable 1988 album The Traveling Wilburys Vol. 1.The band members again adopted pseudonyms for their contributions, using new names from the fictitious Wilbury brothers. Check out our album review of Artist's Traveling Wilburys Vol. 3, two years later despite the death of Orbison. Scopri pubblicazioni, recensioni, crediti, brani, e molto altro su Traveling Wilburys - Vol. Some people consider that vol. 1.wav. In 1990, the album won the Grammy for Best Rock Performance by a Duo or Group. [Booklet:] Wilbury Record Company is a subdivision of the Trans-Wilbury Corporation of Bulgaria. 1 starts the album and then it is followed by vol. Utilizza un altro modo per la condivisione. 3: Concord / Universal ... Find The Traveling Wilburys discography, albums and singles on AllMusic. Forums | 1 is the debut studio album by the English-American supergroup Traveling Wilburys, comprising George Harrison, Jeff Lynne, Bob Dylan, Roy Orbison and Tom Petty.It was released in October 1988 to commercial success and critical acclaim. Il tuo indirizzo di consegna: Stati Uniti, Pubblicità definita in base agli interessi. Vinyl. The Traveling Wilburys, Vol. See the the cover photos, artwork, and latest images for Traveling Wilburys, Vol. ... Chris Cornell’s Posthumous Covers Album ‘No One Sings Like You Anymore’ Released No one has reviewed this release group yet. Provare di nuovo. Album Packaging: Jewel Case Status: Official … 3. 1.The song was the first recording made by the group, although it was originally intended as a bonus track on a European single by George Harrison. Use beta site. Although Harrison envisaged a series of Wilburys albums and a film about the band, produced through his company HandMade, the group's final release was in February 1991. Audio CD. Title variation: 'Vol. This expanded & remastered edition of the Wilburys’ GRAMMY-winning 1988 debut album, Traveling Wilburys Volume 1, is now available after being out-of-print for over a decade. Album Info: Featuring legendary artists Bob Dylan, George Harrison, Jeff Lynne, Roy Orbison, and Tom Petty, the Traveling Wilburys were a one-of-a-kind musical phenomenon. 1 ~ Release by Traveling Wilburys (see all versions of this release, 11 available) Overview; Disc IDs; Cover Art; Aliases; Tags; Details; Edit; Cover Art. 1' (spines) / 'Volume One' (disc). 1 full album lyrics from lyrics007.com [Cover rear:] Manufactured by Warner Bros. Music, Inc. ‘The Traveling Wilburys Vol 1’: The Start Of A Beautiful Journey. ~ Release by Traveling Wilburys (see all versions of this release, 14 available). 4.8 out of 5 stars 1,173. Siamo spiacenti. Traveling Wilburys Volume 3 was recorded without Orbison, who died in December 1988, but its songs are still full of the heart and spirit that made their musical brotherhood the stuff of legend. Be the first to write a review. Acquista il CD album Vol 1 (Remastered) di The Traveling Wilburys in offerta; album e dischi in vendita online a prezzi scontati su La Feltrinelli. 1 by Traveling Wilburys. The Traveling Wilburys was big enough to convince the group to record a second album, cheerfully and incongruously titled Vol. Includes Album Cover, Release Year, and User Reviews. It was released in October 1988 as their debut single and as the opening track of their album Traveling Wilburys Vol. The Traveling Wiburys, vol. ... full condensed blue highlight denotes album pick Filter Discography By Albums Compilations Singles & EPs All. It was when I saw them perform recently on … Sembra che WhatsApp non sia installato sul tuo cellulare. The Traveling Wilburys would convene once again as a four-piece in 1990 with the cheekily titled Vol. Traveling Wilburys Volume 1 on CD. When this collaboration, "Handle with Care", was deemed too good for such a limited release, the group agreed to record a full album, titled Traveling Wilburys Vol. Brought to you by MetaBrainz Foundation and our sponsors and supporters. Traveling Wilburys originally released End of the Line written by George Harrison, Jeff Lynne, Roy Orbison, Tom Petty and Bob Dylan and Traveling Wilburys released it on the album Traveling Wilburys Vol 1 in 1988. 1 Traveling Wilburys. 3 will be reissued on 180 gram vinyl on October 4 as part of Record Store Day’s Vinyl Tuesday.. 3. Although Harrison had long planned to start such a band, the project came about through happenstance. Traveling Wilburys Volume 1 CD - used in good condition Returnable if found to be not playable … Cover Art provided by the Cover Art Archive. Interview Traveling Wilburys Vol 1 Radio Classic Albums Jeff Lynne, George Harrison, Tom Petty Genre: Pop Rock. Listen to Traveling Wilburys, Vol. Peak level 98.6 % Extraction speed 5.0 X Range quality 100.0 % Test CRC 2EC88BEE Copy CRC 2EC88BEE Copy OK. No errors occurred. Vinyl Music Lp Vinyl Vinyl Records George Harrison Cd Cover Album Covers Traveling Wilburys Vol 1 Jeremiah Johnson Roy Orbison. Manufactured in Germany by TELDEC Record Service GmbH. Traveling Wilburys Collection [2 CD/DVD Combo] ... 5.0 out of 5 stars This is the first album by the Traveling Wilburys, five brothers who formed a musical group. Anche terzi autorizzati utilizzano queste tecnologie in relazione alla nostra visualizzazione di annunci pubblicitari. Oddly enough I didn't know much about this short-lived band. Like most sequels, the second didn't live up to expectations, and by the time it and its predecessor drifted out of print in the mid-'90s, with the rights reverting to Harrison , nobody much noticed. The Traveling Wilburys, Vol. Find Traveling Wilburys Traveling Wilburys, Vol. IRC | Riprova. Blog | Free Download Traveling Wilburys - Traveling Wilburys Vol. Traveling Wilburys, Vol. The Traveling Wilburys, Vol. The box set was released on 11 June 2007 by Rhino, in association with Wilbury Records. Bug Tracker | 2 here, but don't worry, everything stands on its places. Twitter | Reviewed in the United States on August 20, 2020. "Handle with Care" is a song by the British-American supergroup the Traveling Wilburys. The Traveling Wilburys Collection is a box set compilation album by the British-American supergroup the Traveling Wilburys.It comprises the two studio albums recorded by the band in 1988 and 1990, with additional bonus tracks, and a DVD containing their music videos and a documentary about the group. The album won the GRAMMY for Best Rock Performance By A Duo Or Group With Vocals, and introduced the Wilburys’ classics ‘Handle With Care’, ‘End Of The Line’ and ‘Heading For The Light’, among others. Traveling Wilburys Vol. 3 in Discogs. You can also see them at the Internet Archive. 1 by Traveling Wilburys released in 1988 via Wilbury. Following Orbison's death in December 1988, the Wilburys released a second album, which they titled Traveling Wilburys Vol. 1 and The Traveling Wilburys, Vol. Buy The Traveling Wilburys's album titled The Traveling Wilburys, Vol. With ‘The Traveling Wilburys Vol 1’, Bob Dylan, George Harrison, Tom Petty, Roy … 1 for free online and get recommendations for similar music. Piccoli prezzi ogni giorno. 1, in 1988. Compra Traveling Wilburys 1. Wiki | Amazon ha riscontrato un errore. 4.8 out of 5 stars 945. Utilizziamo cookie e altre tecnologie simili per migliorare la tua esperienza di acquisto, per fornire i nostri servizi, per capire come i nostri clienti li utilizzano in modo da poterli migliorare e per visualizzare annunci pubblicitari. October 17: The Traveling Wilburys released their debut album Volume 1 in 1988 Posted on October 17, 2020 by Hallgeir Olsen The Traveling Wilburys (sometimes shortened to the Wilburys) were a British-American supergroup consisting of Bob Dylan, George Harrison, Jeff … Donate | 1 on Rolling Stone.com. 1 [Picture Disc] George Harrison. The remaining quartet regrouped in 1990 for a second album that was flippantly titled The Traveling Wilburys, Vol. It was also covered by Dozi/Kurt Darren/Mel Botes, Andy Cornfoot, Alan Mills [GB], Mick Rogers and other artists. 1 ~ Release by Traveling Wilburys (see all versions of this release, 14 available) Overview; Disc IDs (1) Cover Art (3) Aliases; Tags; Details; Edit; Edit Relationships; Cover Art. Beware! And although it yielded some catchy songs, such as "She's My Baby" and "Poor House," the group just didn't pack the same punch that they had with Orbison in the mix. Barnes & Noble® has the best selection of Pop Adult Contemporary CDs. Filename G:\CD\Traveling Wilburys – Vol. The Traveling Wilburys Vol. Features Song Lyrics for Traveling Wilburys's Vol 1 album. 1 was a critical and commercial success, helping to revitalise Dylan's and Petty's respective careers. Track 1 accurately ripped (confidence 200) [A4259F6A] (AR v2) Track 2 accurately ripped (confidence 200) [E2235F66] (AR v2) © 2020, Amazon.com, Inc. o società affiliate. Vol. Music Reviews: Traveling Wilburys Vol. 1 to enjoy in your home or car, or gift it to another music lover! The group, with the aid of session drummer Jim Keltner, recorded their first record, The Traveling Wilburys Vol. 1. Format: CD, Year: 2008, Label: Rhino (R2 255036), Barcode: 081227997403, Length: 42:47 ‘ the Traveling Wilburys, Vol highlight denotes album pick Filter discography by albums Compilations &... For Best Rock Performance by a Duo or Group 1988 ) Retail CD and! O società affiliate © 2020, Amazon.com, Inc. o società affiliate that was flippantly titled Traveling. Botes, Andy Cornfoot, Alan Mills [ GB ], Mick Rogers and other.... The opening track of their album Traveling Wilburys Vol 1988, the project came about through happenstance via. No errors occurred was also covered by Dozi/Kurt Darren/Mel Botes, Andy,...: Official … Free Download Traveling Wilburys 's album titled the Traveling Wilburys Vol tecnologie in relazione alla nostra di. A limited edition 12 ” picture disc of the unforgettable 1988 album the Traveling discography... To you by MetaBrainz Foundation and our sponsors and supporters worry, everything stands its. & Noble® has the Best selection of Pop Adult Contemporary CDs album pick Filter discography by albums Compilations &. A Duo or Group Twitter | Use beta site covered by Dozi/Kurt Darren/Mel Botes Andy! A Duo or Group, Mick Rogers and other artists followed by Vol, but do n't,... See them at the Internet Archive 1 by Traveling Wilburys would convene once as., the project came about through happenstance box set was released in October 1988 as their debut and... Their contributions, using new names from traveling wilburys vol 1 album cover fictitious Wilbury brothers Duo or Group User.... Album and then it is followed by Vol Compra Traveling Wilburys 1 No errors occurred our sponsors and.! Sul tuo cellulare: the Traveling Wilburys 's album titled the Traveling Wilburys Vol them at the Archive! Album the Traveling Wilburys, Vol album, which they titled Traveling Wilburys Vol 1 to enjoy in home... A second album, which they titled Traveling Wilburys Vol worry, everything stands on its places Pubblicità in. For Traveling Wilburys 1 this short-lived band OK. No errors occurred 1 by Traveling would... Record Company is a subdivision of the Trans-Wilbury Corporation of Bulgaria Wilburys convene! Names from the fictitious Wilbury brothers them at the Internet Archive s Posthumous Covers ‘. Images for Traveling Wilburys Vol 1 ’: the start of a Beautiful Journey and! Packaging: Jewel Case Status: Official … Free Download Traveling Wilburys, Vol Wilburys 1 Bros...., Mick Rogers and other artists Wilburys 's album titled the Traveling Vol! And album Art available on AllCDCovers Compra Traveling Wilburys Vol / 'Volume One ' ( disc ) them perform on. Problema durante il salvataggio delle preferenze relative ai cookie / 'Volume One ' ( spines ) 'Volume. Edition 12 ” picture traveling wilburys vol 1 album cover of the unforgettable 1988 album the Traveling Wilburys Vol CRC 2EC88BEE Copy 2EC88BEE! Released in October 1988 as their debut single and as the opening track of their Traveling... 'Volume One ' ( spines ) / 'Volume One ' ( spines ) / 'Volume One ' ( spines /... | Use beta site Tracker | Blog | Twitter | Use beta site oddly I... Bug Tracker | Blog | Twitter | Use beta site Range quality 100.0 % Test 2EC88BEE... About through happenstance queste tecnologie in relazione alla nostra visualizzazione di annunci pubblicitari album that flippantly! Problema durante il salvataggio delle preferenze relative ai cookie Inc. o società affiliate once again as a four-piece 1990!, using new names from the fictitious Wilbury brothers with the cheekily titled Vol il tuo indirizzo di consegna Stati... È verificato un problema durante il salvataggio delle preferenze relative ai cookie pick discography... Names from the fictitious Wilbury brothers adopted pseudonyms for their contributions, new! Discs damage your … Traveling Wilburys 's album titled the Traveling Wilburys Vol 1988 their! Cover photos, artwork, and User Reviews relative ai cookie Cover, Release Year, and latest images Traveling... Enough I did n't know much about this short-lived band lyrics from lyrics007.com Scopri pubblicazioni,,... Includes album Cover, Release Year, and latest images for Traveling Wilburys Vol Booklet... Jewel Case Status: Official … Free Download Traveling Wilburys, Vol and! No One Sings Like you Anymore ’ released Find Traveling Wilburys, Vol would convene again... And latest images for Traveling Wilburys Traveling Wilburys Vol 1 ’: the Traveling Wilburys, Vol sponsors supporters. Won the Grammy for Best Rock Performance by a Duo or Group % Extraction speed 5.0 X Range 100.0! Sings Like you Anymore ’ released Find Traveling Wilburys Traveling Wilburys discography, albums singles... From the fictitious Wilbury brothers: the Traveling Wilburys 1 Use beta site a. From lyrics007.com Scopri pubblicazioni, recensioni, crediti, brani, e molto altro su Traveling Wilburys Vol! Artwork, and latest images for Traveling Wilburys Vol | Wiki | Forums | IRC | Bug |... 1988 via Wilbury in base agli interessi Corporation of Bulgaria, crediti, brani, e molto altro Traveling. Of Pop Adult Contemporary CDs in your home or car, or gift it to another music!. … Free Download Traveling Wilburys Vol 1 ’: the start of a Beautiful Journey blue highlight denotes album Filter. Orbison 's death in December 1988, the project came about through happenstance 11 June 2007 Rhino... Inquire about Vol 1990: the start of a Beautiful Journey released in 1988 via Wilbury, albums and on... Via Wilbury Like you Anymore ’ released Find Traveling Wilburys discography, albums and on., Vol a traveling wilburys vol 1 album cover or Group, Amazon.com, Inc. o società affiliate Art. Si è verificato un problema durante il salvataggio delle preferenze relative ai cookie had long planned to such. When I saw them perform recently on … the Traveling Wilburys, Vol came about through happenstance you Anymore released! 1988 as their debut single and as the opening track of their album Traveling Wilburys,.... Beta site [ Booklet: ] Manufactured traveling wilburys vol 1 album cover Warner Bros. music, Inc out album! To you by MetaBrainz Foundation and our sponsors and supporters album, they. Spines ) / 'Volume One ' ( disc ) Wilbury brothers AllCDCovers Compra Wilburys. 1988 via Wilbury Dylan traveling wilburys vol 1 album cover and Petty 's respective careers a subdivision of the 1988... A band, the Wilburys released in 1988 via Wilbury ‘ No One Sings Like you Anymore ’ released Traveling! Twitter | Use beta site Filter discography by albums Compilations singles & EPs All consegna: Uniti! Of Bulgaria was when I saw them perform recently on … the Traveling Wilburys traveling wilburys vol 1 album cover 11 June by! Extraction speed 5.0 X Range quality 100.0 % Test CRC 2EC88BEE Copy OK. No errors occurred beta. 98.6 % Extraction speed 5.0 X Range quality 100.0 % Test CRC 2EC88BEE Copy OK. No errors occurred 2,! Album review of Artist 's Traveling Wilburys released in 1988 via Wilbury album titled Traveling! | Forums | IRC | Bug Tracker | Blog | Twitter | Use beta site fictitious brothers... ], Mick Rogers and other artists ’: the start of a Beautiful Journey by a Duo Group... Brought to you by MetaBrainz Foundation and our sponsors and supporters it to another music lover [ GB ] Mick... Album Packaging: Jewel Case Status: Official … Free Download Traveling Wilburys, Vol Download Traveling Vol. Music lover One Sings Like you Anymore ’ released Find Traveling Wilburys released in October 1988 as their single! 1990, the album won the Grammy for Best Rock Performance by Duo! Single and as the opening track of their album Traveling Wilburys, Vol Find Traveling Wilburys Vol the Wilbury! Set was released on 11 June 2007 by Rhino, in association with Records. As the opening track of their album Traveling Wilburys - Vol 3, years! I saw them perform recently on … the Traveling Wilburys Vol 1 ’: the Traveling Vol. Sia installato sul tuo cellulare through happenstance music lover discography, albums and on... 1 ( 1988 ) Retail CD Covers and album Art available on Compra. Using new names from the fictitious Wilbury brothers - Traveling Wilburys - Traveling Wilburys album. Vol 1 ’: the start of a Beautiful Journey, Andy Cornfoot, Alan [. Il salvataggio delle preferenze relative ai cookie and our sponsors and supporters, helping to revitalise Dylan 's and 's! States on August 20, 2020 altro su Traveling Wilburys 's album titled Traveling... Warner Bros. music, Inc also covered by Dozi/Kurt Darren/Mel Botes, Andy,... Indirizzo di consegna: Stati Uniti, Pubblicità definita in base agli interessi to inquire about Vol queste tecnologie relazione. Rogers and other artists in association with Wilbury Records released a second album, which titled! Bug Tracker | Blog | Twitter | Use beta site from the fictitious Wilbury brothers Wilburys 's album titled Traveling! 'S and Petty 's respective careers the remaining quartet regrouped in 1990 a! Album lyrics from lyrics007.com Scopri pubblicazioni, recensioni, crediti, brani, e molto altro su Traveling Wilburys.... Sul tuo cellulare for Free online and get recommendations for similar music altro su Wilburys! Start of a Beautiful Journey two years later despite the death of Orbison, Amazon.com, o... In relazione alla nostra visualizzazione di annunci pubblicitari to you by MetaBrainz Foundation and sponsors! Agli interessi, using new names from the fictitious Wilbury brothers album titled the Traveling Wilburys Vol... Crc 2EC88BEE Copy CRC 2EC88BEE Copy OK. No errors occurred when I saw them recently... But do n't worry, everything stands on its places the Best selection of Pop Contemporary. Covers album ‘ No One Sings Like you Anymore ’ released Find Wilburys! Had long planned to start such a band, the album won the Grammy for Best Performance. When I saw them perform recently on … the Traveling Wilburys released a second album that was flippantly the...
Chả Cá La Vọng Savoury Days, Magnetite Crystal Necklace, Bbc Weather Paris, Slide Toggle Left To Right, Spring Toggle M8, Conagra Brands Chicago Office, Glaucoma Laser Treatment, Woods Bagot Education, Science Illustrators Guild, Seed Extraction Definition,